Coursera - Astrobiology and the Search for Extraterrestrial Life (The University of Edinburgh)

Posted in: Tutorials | By: mitsumi | 31-07-2019, 13:32 | 0 Comments
31
July
2019
Coursera - Astrobiology and the Search for Extraterrestrial Life  (The University of Edinburgh)

Coursera - Astrobiology and the Search for Extraterrestrial Life (The University of Edinburgh)
WEBRip | English | MP4 + PDF Guides | 960 x 540 | AVC ~221 kbps | 25 fps
AAC | 128 Kbps | 44.1 KHz | 2 channels | Subs: English (.srt) | ~5 hours | 789 MB
Genre: eLearning Video / Science, Astronomy and Cosmology, Microbiology
Learn about the origin and evolution of life and the search for life beyond the Earth.


Syllabus

Life and Its Origins
-What is life and what are the definitions of life? What do we know about the origin of life and what are the current hypotheses for how it originated on the Earth?

Life on Earth
-What was the environment of early Earth like when life first emerged and what do we know about life on the earliest Earth? How did life evolve to cope with survival in extreme environments? What have been the major evolutionary transitions of life on the Earth?

Habitable Environments Elsewhere in our Solar System?
-What are the prospects for life on other planetary bodies in our Solar System and how do we go about searching for it? What conditions are required for a planet to be habitable?

The Search for Habitable Exoplanets
- How do we search for Earth-like planets orbiting distant stars and how would we detect life on them?

Extraterrestrial Intelligence
-What are the possibilities for intelligent life elsewhere? How would we deal with contact with an extraterrestrial intelligence and what would be the impact on society? Who would represent Earth?

Taught by Charles Cockell

General
Complete name : 01_4.1_Life_in_Extreme_Environments_-_Life_Through_Time_-_18-07.mp4
Format : MPEG-4
Format profile : Base Media
Codec ID : isom (isom/iso2/avc1/mp41)
File size : 45.9 MiB
Duration : 18 min 7 s
Overall bit rate mode : Variable
Overall bit rate : 354 kb/s
Encoded date : UTC 1970-01-01 00:00:00
Tagged date : UTC 1970-01-01 00:00:00
Writing application : Lavf53.29.100

Video
ID : 1
Format : AVC
Format/Info : Advanced Video Codec
Format profile : High@L3.1
Format settings : CABAC / 4 Ref Frames
Format settings, CABAC : Yes
Format settings, RefFrames : 4 frames
Codec ID : avc1
Codec ID/Info : Advanced Video Coding
Duration : 18 min 7 s
Bit rate : 221 kb/s
Width : 960 pixels
Height : 540 pixels
Display aspect ratio : 16:9
Frame rate mode : Constant
Frame rate : 25.000 FPS
Color space : YUV
Chroma subsampling : 4:2:0
Bit depth : 8 bits
Scan type : Progressive
Bits/(Pixel*Frame) : 0.017
Stream size : 28.7 MiB (62%)
Writing library : x264 core 120 r2120 0c7dab9
Encoding settings : cabac=1 / ref=3 / deblock=1:0:0 / analyse=0x3:0x113 / me=hex / subme=7 / psy=1 / psy_rd=1.00:0.00 / mixed_ref=1 / me_range=16 / chroma_me=1 / trellis=1 / 8x8dct=1 / cqm=0 / deadzone=21,11 / fast_pskip=1 / chroma_qp_offset=-2 / threads=12 / sliced_threads=0 / nr=0 / decimate=1 / interlaced=0 / bluray_compat=0 / constrained_intra=0 / bframes=3 / b_pyramid=2 / b_adapt=1 / b_bias=0 / direct=1 / weightb=1 / open_gop=0 / weightp=2 / keyint=250 / keyint_min=25 / scenecut=40 / intra_refresh=0 / rc_lookahead=40 / rc=crf / mbtree=1 / crf=28.0 / qcomp=0.60 / qpmin=0 / qpmax=69 / qpstep=4 / ip_ratio=1.40 / aq=1:1.00
Encoded date : UTC 1970-01-01 00:00:00
Tagged date : UTC 1970-01-01 00:00:00

Audio
ID : 2
Format : AAC
Format/Info : Advanced Audio Codec
Format profile : LC
Codec ID : mp4a-40-2
Duration : 18 min 7 s
Bit rate mode : Variable
Bit rate : 128 kb/s
Channel(s) : 2 channels
Channel positions : Front: L R
Sampling rate : 44.1 kHz
Frame rate : 43.066 FPS (1024 SPF)
Compression mode : Lossy
Stream size : 16.5 MiB (36%)
Default : Yes
Alternate group : 1
Encoded date : UTC 1970-01-01 00:00:00
Tagged date : UTC 1970-01-01 00:00:00

Screenshots









Download link:

rapidgator_net:
https://rapidgator.net/file/44c23332eb2225217fab6e702dec114d/l6wpi.Coursera..Astrobiology.and.the.Search.for.Extraterrestrial.Life.The.University.of.Edinburgh.part01.rar.html
https://rapidgator.net/file/d01856571837e50d34118b02f872777a/l6wpi.Coursera..Astrobiology.and.the.Search.for.Extraterrestrial.Life.The.University.of.Edinburgh.part02.rar.html
https://rapidgator.net/file/13552f8948018f75436600511451a35c/l6wpi.Coursera..Astrobiology.and.the.Search.for.Extraterrestrial.Life.The.University.of.Edinburgh.part03.rar.html
https://rapidgator.net/file/1f1f56ea360a77a93c4c96ef6492d9a0/l6wpi.Coursera..Astrobiology.and.the.Search.for.Extraterrestrial.Life.The.University.of.Edinburgh.part04.rar.html
https://rapidgator.net/file/51df0031ed0187390cee422f13c87f43/l6wpi.Coursera..Astrobiology.and.the.Search.for.Extraterrestrial.Life.The.University.of.Edinburgh.part05.rar.html
https://rapidgator.net/file/9d8eca4798f7fc8746cf57ea0aa5333f/l6wpi.Coursera..Astrobiology.and.the.Search.for.Extraterrestrial.Life.The.University.of.Edinburgh.part06.rar.html
https://rapidgator.net/file/663d00d0d28d73147952bdcdd917f69c/l6wpi.Coursera..Astrobiology.and.the.Search.for.Extraterrestrial.Life.The.University.of.Edinburgh.part07.rar.html
https://rapidgator.net/file/c5a08c5949b8cbfe84fe72e1610d289f/l6wpi.Coursera..Astrobiology.and.the.Search.for.Extraterrestrial.Life.The.University.of.Edinburgh.part08.rar.html

nitroflare_com:
http://nitroflare.com/view/EACAAB58CADC1A6/l6wpi.Coursera..Astrobiology.and.the.Search.for.Extraterrestrial.Life.The.University.of.Edinburgh.part01.rar
http://nitroflare.com/view/4FCB924C0E68B66/l6wpi.Coursera..Astrobiology.and.the.Search.for.Extraterrestrial.Life.The.University.of.Edinburgh.part02.rar
http://nitroflare.com/view/04FCB4731D858E2/l6wpi.Coursera..Astrobiology.and.the.Search.for.Extraterrestrial.Life.The.University.of.Edinburgh.part03.rar
http://nitroflare.com/view/FE31CB538C16009/l6wpi.Coursera..Astrobiology.and.the.Search.for.Extraterrestrial.Life.The.University.of.Edinburgh.part04.rar
http://nitroflare.com/view/3071189BC4E1970/l6wpi.Coursera..Astrobiology.and.the.Search.for.Extraterrestrial.Life.The.University.of.Edinburgh.part05.rar
http://nitroflare.com/view/AB3A1A22FF8208A/l6wpi.Coursera..Astrobiology.and.the.Search.for.Extraterrestrial.Life.The.University.of.Edinburgh.part06.rar
http://nitroflare.com/view/DDC5BBF48E3297F/l6wpi.Coursera..Astrobiology.and.the.Search.for.Extraterrestrial.Life.The.University.of.Edinburgh.part07.rar
http://nitroflare.com/view/899118FC695B1E3/l6wpi.Coursera..Astrobiology.and.the.Search.for.Extraterrestrial.Life.The.University.of.Edinburgh.part08.rar

uploadgig_com:
https://uploadgig.com/file/download/1b1e0aA1459c37d4/l6wpi.Coursera..Astrobiology.and.the.Search.for.Extraterrestrial.Life.The.University.of.Edinburgh.part01.rar
https://uploadgig.com/file/download/f7c884B00D283Db9/l6wpi.Coursera..Astrobiology.and.the.Search.for.Extraterrestrial.Life.The.University.of.Edinburgh.part02.rar
https://uploadgig.com/file/download/5d816572A395A229/l6wpi.Coursera..Astrobiology.and.the.Search.for.Extraterrestrial.Life.The.University.of.Edinburgh.part03.rar
https://uploadgig.com/file/download/318f1C81b2062Bfa/l6wpi.Coursera..Astrobiology.and.the.Search.for.Extraterrestrial.Life.The.University.of.Edinburgh.part04.rar
https://uploadgig.com/file/download/62666a6E82c025c4/l6wpi.Coursera..Astrobiology.and.the.Search.for.Extraterrestrial.Life.The.University.of.Edinburgh.part05.rar
https://uploadgig.com/file/download/a4494e676cfc2659/l6wpi.Coursera..Astrobiology.and.the.Search.for.Extraterrestrial.Life.The.University.of.Edinburgh.part06.rar
https://uploadgig.com/file/download/4E650c92Dd009df9/l6wpi.Coursera..Astrobiology.and.the.Search.for.Extraterrestrial.Life.The.University.of.Edinburgh.part07.rar
https://uploadgig.com/file/download/3D1197d38e8eB22b/l6wpi.Coursera..Astrobiology.and.the.Search.for.Extraterrestrial.Life.The.University.of.Edinburgh.part08.rar


Links are Interchangeable - No Password - Single Extraction

Report Dead Link(s)
0 Votes
Note:
Only Registed user can add comment, view hidden links and more, please register now
все шаблоны для dle на сайте шаблоны dle 11.2 скачать